Youtube не нравится некоторые видеоролики

Что ж. У меня много видео на моем сервере, и я пытаюсь загрузить его на Youtube. Все видеозаписи были записаны с использованием openeya, который использует ffmpeg для записи.

Моя проблема заключается в том, что некоторые видео загружаются, а другие нет.

Итак, чтобы проиллюстрировать проблему, у меня есть video A и video B Оба видеоролика записывались последовательно, заканчивались А и начинались с B (пауза продолжительностью 20 минут между ними).

video A было успешно загружено, video B нет.

Используя mediainfo я получаю эту информацию о video A Look:

 General Complete name : openeya.mp4 Format : MPEG-4 Format profile : Base Media Codec ID : isom File size : 78.2 MiB Duration : 41mn 57s Overall bit rate : 261 Kbps Encoded date : UTC 1904-01-01 00:00:00 Tagged date : UTC 1904-01-01 00:00:00 Writing application : Lavf56.25.101 Video ID : 1 Format : AVC Format/Info : Advanced Video Codec Format profile : High@L1.2 Format settings, CABAC : Yes Format settings, ReFrames : 4 frames Codec ID : avc1 Codec ID/Info : Advanced Video Coding Duration : 41mn 57s Bit rate : 200 Kbps Width : 320 pixels Height : 240 pixels Display aspect ratio : 4:3 Frame rate mode : Constant Frame rate : 10.000 fps Color space : YUV Chroma subsampling : 4:2:0 Bit depth : 8 bits Scan type : Progressive Bits/(Pixel*Frame) : 0.260 Stream size : 60.3 MiB (77%) Writing library : x264 core 142 r2389 956c8d8 Encoding settings : cabac=1 / ref=3 / deblock=1:0:0 / analyse=0x3:0x113 / me=hex / subme=7 / psy=1 / psy_rd=1.00:0.00 / mixed_ref=1 / me_range=16 / chroma_me=1 / trellis=1 / 8x8dct=1 / cqm=0 / deadzone=21,11 / fast_pskip=1 / chroma_qp_offset=-2 / threads=6 / lookahead_threads=1 / sliced_threads=0 / nr=0 / decimate=1 / interlaced=0 / bluray_compat=0 / constrained_intra=0 / bframes=3 / b_pyramid=2 / b_adapt=1 / b_bias=0 / direct=1 / weightb=1 / open_gop=0 / weightp=2 / keyint=250 / keyint_min=10 / scenecut=40 / intra_refresh=0 / rc_lookahead=40 / rc=abr / mbtree=1 / bitrate=200 / ratetol=1.0 / qcomp=0.60 / qpmin=0 / qpmax=69 / qpstep=4 / ip_ratio=1.40 / aq=1:1.00 Encoded date : UTC 1904-01-01 00:00:00 Tagged date : UTC 1904-01-01 00:00:00 Audio ID : 2 Format : AAC Format/Info : Advanced Audio Codec Format profile : LC Codec ID : 40 Duration : 41mn 51s Bit rate mode : Constant Bit rate : 56.0 Kbps Channel(s) : 2 channels Channel positions : Front: LR Sampling rate : 22.05 KHz Compression mode : Lossy Stream size : 16.8 MiB (21%) Encoded date : UTC 1904-01-01 00:00:00 Tagged date : UTC 1904-01-01 00:00:00 

Похоже, что такая же информация о video B не срабатывает:

 General Complete name : openeya.mp4 Format : MPEG-4 Format profile : Base Media Codec ID : isom File size : 118 MiB Duration : 1h 16mn Overall bit rate : 214 Kbps Encoded date : UTC 1904-01-01 00:00:00 Tagged date : UTC 1904-01-01 00:00:00 Writing application : Lavf56.25.101 Video ID : 1 Format : AVC Format/Info : Advanced Video Codec Format profile : High@L1.2 Format settings, CABAC : Yes Format settings, ReFrames : 4 frames Codec ID : avc1 Codec ID/Info : Advanced Video Coding Duration : 59mn 35s Bit rate : 200 Kbps Width : 320 pixels Height : 240 pixels Display aspect ratio : 4:3 Frame rate mode : Constant Frame rate : 10.000 fps Color space : YUV Chroma subsampling : 4:2:0 Bit depth : 8 bits Scan type : Progressive Bits/(Pixel*Frame) : 0.260 Stream size : 85.2 MiB (72%) Writing library : x264 core 142 r2389 956c8d8 Encoding settings : cabac=1 / ref=3 / deblock=1:0:0 / analyse=0x3:0x113 / me=hex / subme=7 / psy=1 / psy_rd=1.00:0.00 / mixed_ref=1 / me_range=16 / chroma_me=1 / trellis=1 / 8x8dct=1 / cqm=0 / deadzone=21,11 / fast_pskip=1 / chroma_qp_offset=-2 / threads=6 / lookahead_threads=1 / sliced_threads=0 / nr=0 / decimate=1 / interlaced=0 / bluray_compat=0 / constrained_intra=0 / bframes=3 / b_pyramid=2 / b_adapt=1 / b_bias=0 / direct=1 / weightb=1 / open_gop=0 / weightp=2 / keyint=250 / keyint_min=10 / scenecut=40 / intra_refresh=0 / rc_lookahead=40 / rc=abr / mbtree=1 / bitrate=200 / ratetol=1.0 / qcomp=0.60 / qpmin=0 / qpmax=69 / qpstep=4 / ip_ratio=1.40 / aq=1:1.00 Encoded date : UTC 1904-01-01 00:00:00 Tagged date : UTC 1904-01-01 00:00:00 Audio ID : 2 Format : AAC Format/Info : Advanced Audio Codec Format profile : LC Codec ID : 40 Duration : 1h 16mn Bit rate mode : Constant Bit rate : 56.0 Kbps Channel(s) : 2 channels Channel positions : Front: LR Sampling rate : 22.05 KHz Compression mode : Lossy Stream size : 30.8 MiB (26%) Encoded date : UTC 1904-01-01 00:00:00 Tagged date : UTC 1904-01-01 00:00:00 

Изображение с differencws Спасибо @ mt025

Итак, почему Youtube не нравится video B ?

После завершения загрузки YT продолжит обработку и остановится на 95% в течение ~ 5 минут, а после этого

Видео не удалось обработать. Убедитесь, что вы загружаете поддерживаемый тип файла.

One Solution collect form web for “Youtube не нравится некоторые видеоролики”

У вас, вероятно, есть плохой блок данных в файле, который не позволяет загружать его. Попробуйте следующее:

1) Повторно закодировать. (Это, вероятно, должно работать)

2) Попробуйте загрузить в другое место, кроме YouTube

3) Попробуйте воспроизвести его и убедитесь, что ошибок нет.

4) Проверьте файловую систему на наличие ошибок.

  • Spotify, Youtube, Shockwave Flash и другие программы, не работающие
  • Как преобразовать анимированный GIF в формат видео в формате YouTube?
  • Черный экран, воспроизводящий видео на YouTube в Google Chrome
  • YouTube Video Встраивается через iframe Игнорирует z-index?
  • HTML-тег видео, не отображающийся на источнике некоторых веб-сайтов
  • Play Youtube HTML5 встроенное видео в Android WebView
  • Как я могу получить идентификатор канала с YouTube?
  • Блокировка приложения YouTube на YouTube с маршрутизатора
  • Ссылка на RTSP youtube
  • Как отключить видеоролики YouTube от автоматического воспроизведения?
  • Расширение Chrome не загружается в браузере на YouTube
  • Interesting Posts

    Обработчик против AsyncTask vs Thread

    В чем смысл «operator bool () const”

    Исправить суффикс для исходного файла Fortran 2003 – компилятор Intel Fortran

    Android – как отменить регистрацию получателя, созданного в манифесте?

    Как использовать ключи f-1 – f12 без нажатия клавиши FN в Windows 7 с помощью bootcamp на Macbook Pro?

    Как повторить попытку после исключения?

    В чем разница между статически типизированными и динамически типизированными языками?

    Могу ли я получить список времени компиляции всех объектов case, которые происходят из запечатанного родителя в Scala?

    Почему мой пакет CSS не работает с загруженным приложением MVC4 с помощью bin?

    Передача строк из C # в C ++ DLL и обратно – минимальный пример

    C ++ CLI ошибка C3767: функция кандидата недоступна

    Django Push HTTP-ответ пользователям

    Печать списков с запятыми C ++

    Какую команду мне нужно использовать для удаления файла с именем `-rf`?

    Максимальное количество записей в таблице базы данных MySQL

    Давайте будем гением компьютера.